Help - Search - Members - Calendar
Full Version: Death Of A Dryad - Hameln (2021)
Metal Area - Extreme Music Portal > Releases Area / Релизы > Archive
Samaritianin


*Artist: Death Of A Dryad
*Album: Hameln
*Year: 2021
*Genre: Atmospheric/Dark Metal
*Country: France
*Format: mp3@CBR320kbps
*Size: 108MB

Tracklist:
01. Enter the Piper 08:40
02. Hameln 07:35
03. Apud Omnes Hostes 08:04
04. Moths to a Flame 02:04
05. Left to Die 07:56
06. Requiem 05:45
07. Freedom Lies 06:44
******************************
Total playing time: 46:48




Extended info


Technical info

Input File: 07 - Freedom Lies.mp3
Channels : 2
Sample Rate : 44100
Precision : 16-bit
Duration : 00:06:43.93 = 17813313 samples = 30294.8 CDDA sectors
File Size : 16.3M
Bit Rate : 324k
Sample Encoding: MPEG audio (layer I, II or III)
Comments :
Title=Freedom Lies
Artist=Death of a Dryad
Album=Hameln
Tracknumber=7
Year=2021
Discnumber=1/1



[ Hidden Text ]
mirotvorets
Искусно переплетены мелодии фолка, дарквейв и красивые готические гармонии.
6666666
ЦИТАТА(mirotvorets @ 22nd April 2021 - 22:22:19) *
Искусно переплетены мелодии фолка, дарквейв и красивые готические гармонии.

На что похоже?
mirotvorets
ЦИТАТА(6666666 @ Apr 22 2021, 23:26:25) *
На что похоже?


Dead can Dance ,прямо временами.
6666666
ЦИТАТА(mirotvorets @ 22nd April 2021 - 22:31:18) *
Dead can Dance ,прямо временами

Спорный для меня ориентир, у них что-то очень да, что-то вообще нет.
mirotvorets
ЦИТАТА(6666666 @ Apr 22 2021, 23:34:46) *
Спорный для меня ориентир, у них что-то очень да, что-то вообще нет.


Периода, когда они фолк стали привлекать.
6666666
ЦИТАТА(mirotvorets @ 22nd April 2021 - 22:48:36) *
Периода, когда они фолк стали привлекать.

Це плохо.
folker
Sopor Aeternus "Es reiten die Toten..." smells
Cooperalex
Концептуальный альбом по мотивам недоброй сказки. Слушать на ночь, при свечах, для усиления эффекта. По настроению похоже на ранние работы Virgin Black, флейта и струнные отсылают к музыке эпохи Ренессанса и Haggard. Интересно слушать каждую песню, и альбом в целом оставляет очень приятное впечатление. Открытие года для меня.
This is a "lo-fi" version of our main content. To view the full version with more information, formatting and images, please click here.
Invision Power Board © 2001-2021 Invision Power Services, Inc.