Help - Search - Members - Calendar
Full Version: Hymnr - Far Beyond Insanity (2021)
Metal Area - Extreme Music Portal > Releases Area / Релизы > New Releases > Low Bitrate
Necrokilldozer


*Artist: Hymnr
*Album: Far Beyond Insanity
*Year: 2021
*Genre: Black Metal
*Country: Russian Federation
*Format: mp3@CBR320kbps
*Size: 93MB

Tracklist:
1. Part I 10:42
2. Part II 08:10
3. Part III 13:03
4. Part IV 12:02
******************************
Total playing time: 43:57

Extended info
В ЛОУ

Line - up:

VII - Drums
VI - Guitars, Bass
V - Vocals


Technical info

Input File: 02. Part II.mp3
Channels : 2
Sample Rate : 48000
Precision : 16-bit
Duration : 00:08:10.49 = 23543568 samples ~ 36786.8 CDDA sectors
File Size : 19.6M
Bit Rate : 320k
Sample Encoding: MPEG audio (layer I, II or III)
Comments :
Title=Part II
Artist=Hymnr
Album=Far Beyond Insanity
Tracknumber=02
Year=2021
Genre=138



[ Hidden Text ]
rickzammuto
snorr
Годнейший релиз. Нет ни у кого в качестве?
cesar
Согласен, неплохо. Атмосфера правильная!
This is a "lo-fi" version of our main content. To view the full version with more information, formatting and images, please click here.
Invision Power Board © 2001-2021 Invision Power Services, Inc.