Help - Search - Members - Calendar
Full Version: Metalblack - When The Night Conquers Light (2021)
Metal Area - Extreme Music Portal > Releases Area / Релизы > New Releases > Unformat R:
Shadechaser


*Artist: Metalblack
*Album: When The Night Conquers Light
*Year: 2021
*Genre: Ambient/Dungeon Synth
*Country: Russian Federation
*Format: mp3@CBR320kbps
*Size: 180MB

Tracklist:
01. Too Early for Snow
02. It Was Cold
03. Only Darkness Remains
04. The Night Has Not Gone
05. The Last Stronghold
06. Under the Hood
07. The Magic Turned Black
08. Enslaved by Darkness
09. Wandering Shadow
10. The Children of Morgoth
11. Drums of War
12. Victory or Death
13. The Glimmering Between Trees
14. Horned Race
15. The Shadow Path
16. Somewhere in the Nethermost Profound
******************************
Total playing time: 1:18:46

Extended info


Technical info

Input File: 02. It Was Cold.mp3
Channels : 2
Sample Rate : 44100
Precision : 16-bit
Duration : 00:05:33.27 = 14696987 samples = 24994.9 CDDA sectors
File Size : 13.3M
Bit Rate : 320k
Sample Encoding: MPEG audio (layer I, II or III)
Comments :
Title=It Was Cold
Artist=MetalBlack
Album=When the Night Conquers Light
Tracknumber=2



[ Hidden Text ]
KKK1488
пожалуйста, дайте ссылку на другой обменник
Shadechaser
[ Hidden Text ]
This is a "lo-fi" version of our main content. To view the full version with more information, formatting and images, please click here.
Invision Power Board © 2001-2021 Invision Power Services, Inc.