Help - Search - Members - Calendar
Full Version: Dismembered Engorgement - Whore Evisceration (2018)
Metal Area - Extreme Music Portal > Releases Area / Релизы > Archive
satanist666


*Artist: Dismembered Engorgement
*Album: Whore Evisceration
*Year: 2018
*Genre: Slam/Brutal Death Metal
*Country: United States
*Format: mp3@CBR320kbps
*Size: 52MB

Tracklist:
01. Eviscerating Her Womb... 03:00
02. Gore Slammed Whores 02:08
03. Engorging Mutilated Victims 02:00
04. Homoerotic Coproectomy 02:24
05. You Got Your Aids From A Gay Brony 02:06
06. Stillborn Annihilation 03:42
07. Feast On Sevared Human Limbs 02:04
08. Middle School Pedophile Rape 04:04
******************************
Total playing time: 21:28



Technical info

Input File: 01. Eviscerating Her Womb....mp3
Channels : 2
Sample Rate : 44100
Precision : 16-bit
Duration : 00:03:00.15 = 7944615 samples = 13511.2 CDDA sectors
File Size : 7.54M
Bit Rate : 335k
Sample Encoding: MPEG audio (layer I, II or III)
Comments :
Title=Eviscerating Her Womb...
Artist=Dismembered Engorgement
Album=Whore Evisceration
Tracknumber=1
Year=2018



[ Hidden Text ]
RUSP73
Пацанчики реально лет в 15 начали, да и фото на это намекают 1488.gif
rominow
очень пласмассово.
This is a "lo-fi" version of our main content. To view the full version with more information, formatting and images, please click here.
Invision Power Board © 2001-2021 Invision Power Services, Inc.