Help - Search - Members - Calendar
Full Version: Acid's Trip - Strings Of Soul (2021)
Metal Area - Extreme Music Portal > Releases Area / Релизы > New Releases > Unformat R:
vosmidesijatye


*Artist: Acid's Trip
*Album: Strings Of Soul
*Year: 2021
*Genre: Psychedelic/Hard Rock
*Country: Sweden
*Format: mp3@CBR320kbps
*Size: 92MB

Tracklist:
1. Prelude 01:29
2. Strings Of Soul 04:00
3. The Kiss Riff 03:26
4. No More Fucks 02:16
5. High Time 03:20
6. Just A Man 04:05
7. Faster, Chopper, Boogie 03:21
8. Creature Of The Lagoon 03:25
9. Get It Right 03:17
10. Delusions Of Grandeur 04:04
11. If Only (I Were the Only) 03:11
12. Come Hell Or High Water 04:01
******************************
Total playing time: 39:55



Technical info

Input File: 02 - Strings of Soul.mp3
Channels : 2
Sample Rate : 44100
Precision : 16-bit
Duration : 00:04:00.89 = 10623293 samples = 18066.8 CDDA sectors
File Size : 9.78M
Bit Rate : 325k
Sample Encoding: MPEG audio (layer I, II or III)
Comments :
Title=Strings of Soul
Artist=Acid's Trip
Album=Strings of Soul
Tracknumber=02
Year=2021
Genre=Psychedelic | Hard Rock



[ Hidden Text ]
vosmidesijatye
Задорный альбом с женским вокалом. Хоть подобной музыки и порядочно сейчас встречается, но эти музыканты не теряются на общем фоне олдскульного ревайвала.

This is a "lo-fi" version of our main content. To view the full version with more information, formatting and images, please click here.
Invision Power Board © 2001-2021 Invision Power Services, Inc.