Help - Search - Members - Calendar
Full Version: The Firebirds - Light My Fire (1969)
Metal Area - Extreme Music Portal > Releases Area / Релизы > New Releases > Unformat R:
vosmidesijatye


*Artist: The Firebirds
*Album: Light My Fire
*Year: 1969
*Genre: Hard Rock/Heavy Psych
*Country: United Kingdom
*Format: mp3@CBR320kbps
*Size: 70MB

Tracklist:
1. Warm Up 02:30
2. Reflections 04:22
3. By Baby 05:29
4. Free Bass, Free Drum, Free Fuzz 02:37
5. Gypsy Fire 04:31
6. Delusions 02:39
7. No Tomorrows 05:02
8. Light My Fire 04:18
******************************
Total playing time: 31:28



Technical info

Input File: 01 - Warm Up.mp3
Channels : 2
Sample Rate : 44100
Precision : 16-bit
Duration : 00:02:29.80 = 6606048 samples = 11234.8 CDDA sectors
File Size : 6.03M
Bit Rate : 322k
Sample Encoding: MPEG audio (layer I, II or III)
Comments :
Title=Warm Up
Artist=The Firebirds
Album=Light My Fire
Tracknumber=1
Year=1969
Genre=Psychedelic Rock



[ Hidden Text ]
vosmidesijatye
Ребята обыграли не только название трэка The Doors, но и мотивчик в открывающем трэке. А сам сабж - очень крутой вязкий блюзовый сай рок.
This is a "lo-fi" version of our main content. To view the full version with more information, formatting and images, please click here.
Invision Power Board © 2001-2022 Invision Power Services, Inc.