Help - Search - Members - Calendar
Full Version: Mørk Visdom - Obscure Symphonies (The Cursed Chant Of The Fallen Angels) (2021)
Metal Area - Extreme Music Portal > Releases Area / Релизы > New Releases > Low Bitrate
satanist666


*Artist: Mørk Visdom
*Album: Obscure Symphonies (The Cursed Chant Of The Fallen Angels)
*Year: 2021
*Genre: Black Metal
*Country: Brazil
*Format: mp3@CBR320kbps
*Size: 96MB

Tracklist:
01. Beginning The Dark Infernal Act 01:51
02. OdiVm A Christo 04:32
03. Among The Master Of Black Shadows 03:40
04. Obscure Symphonies (The Cursed Chant Of The Fallen Angels) 05:26
05. Interlude Of Chaos, The Profane Wisdom 03:13
06. From The Deepest Abyss, The Blood Offered 04:52
07. Unholy Army (We Salute Of Angel Of The Light) 03:53
08. The Dark Breath In The Black Wind 04:04
09. Morbid Melancholy, The Cry Of Lost Souls 05:04
10. The Question Of Last Chapter ...?... 04:48
******************************
Total playing time: 41:23

Extended info



Technical info

Input File: 01. Beginning The Dark Infernal Act.mp3
Channels : 2
Sample Rate : 44100
Precision : 16-bit
Duration : 00:01:51.81 = 4930821 samples = 8385.75 CDDA sectors
File Size : 4.47M
Bit Rate : 320k
Sample Encoding: MPEG audio (layer I, II or III)



[ Hidden Text ]
satanist666
Опять 320kbps попал в Low Bitrate!!!
Как так получается???
Kazoth
ЦИТАТА(satanist666 @ May 13 2021, 19:12:50) *
Опять 320kbps попал в Low Bitrate!!!
Как так получается???

Ну видимо посчитали, что по спектрам не проходит...
KKK1488
пож другую ссилку дайте
Morra
ЦИТАТА(satanist666 @ May 13 2021, 17:12:50) *
Опять 320kbps попал в Low Bitrate!!!
Как так получается???

Это стимовый рип с подрезкой по частотам и размещенная в сеть самой группой. Действительно не в лучшем качестве. В отличие от Balmog - Eve где мp3 кодировка срезала большую часть частот, что при просмотре спектрографии вполне классифицируется как low-- хотя на самом деле это не так.
This is a "lo-fi" version of our main content. To view the full version with more information, formatting and images, please click here.
Invision Power Board © 2001-2021 Invision Power Services, Inc.