Help - Search - Members - Calendar
Full Version: Vomit Ritual - Callous (2021)
Metal Area - Extreme Music Portal > Releases Area / Релизы > Archive
Samaritianin


*Artist: Vomit Ritual
*Album: Callous
*Year: 2021
*Genre: Black/Death Metal
*Country: United States
*Format: mp3@CBR320kbps
*Size: 75MB

Tracklist:
1. Strangling Opposing Throats 02:25
2. Asphyxiated 05:26
3. Paracusia Nexus 01:36
4. Lower Vibrational Entities 04:55
5. Penetrating The Infectious Wound 04:03
6. Sadolustic Crucifixions 04:45
7. Nervous Temple 10:28
******************************
Total playing time: 33:38



Extended info
SexGoat Sodomizer Bass
See also: Sexblasphemy
Ominous Carnality Drums
See also: Ancient Grave, Sexblasphemy
Sado Chaos Vocals, Guitars
See also: The Perpetual Wound, ex-Decimation, ex-Nuclear Desecration


Technical info

Input File: 06. Sadolustic Crucifixions.mp3
Channels : 2
Sample Rate : 44100
Precision : 16-bit
Duration : 00:04:45.17 = 12575777 samples = 21387.4 CDDA sectors
File Size : 11.4M
Bit Rate : 320k
Sample Encoding: MPEG audio (layer I, II or III)
Comments :
Title=Sadolustic Crucifixions
Artist=Vomit Ritual
Album=Callous
Tracknumber=6
Year=2021
Genre=Metal



[ Hidden Text ]
oathzine
Flac

[ Hidden Text ]
acerbus
Ого, кто разродился-то! Неожиданно.
This is a "lo-fi" version of our main content. To view the full version with more information, formatting and images, please click here.
Invision Power Board © 2001-2021 Invision Power Services, Inc.