Help - Search - Members - Calendar
Full Version: Hore - Siostry Wiedźmy (2021)
Metal Area - Extreme Music Portal > Releases Area / Релизы > Archive
Samaritianin


*Artist: Hore
*Album: Siostry Wiedźmy
*Year: 2021
*Genre: Black Metal
*Country: Poland
*Format: mp3@CBR320kbps
*Size: 78MB

Tracklist:
1. Drwimy jak grom
2. Bije raz, dwa, trzy...
3. Siostry wiedźmy
4. Król Olch
5. W chrustach
6. Pieśń ma była już w grobie
7. Biesy
8. Księżnę dziś pochowano
******************************
Total playing time: 34:27




Extended info




Technical info

Input File: 08 - Księżnę dziś pochowano.mp3
Channels : 2
Sample Rate : 44100
Precision : 16-bit
Duration : 00:05:00.59 = 13255843 samples = 22544 CDDA sectors
File Size : 12.0M
Bit Rate : 320k
Sample Encoding: MPEG audio (layer I, II or III)
Comments :
Title=Księżnę dziś pochowano
Artist=HORE
Album=Siostry Wiedźmy
Tracknumber=8
Year=2021
Genre=Black Metal



[ Hidden Text ]
Samaritianin
FLAC (Tracks) 244 mb
[ Hidden Text ]
This is a "lo-fi" version of our main content. To view the full version with more information, formatting and images, please click here.
Invision Power Board © 2001-2021 Invision Power Services, Inc.