Help - Search - Members - Calendar
Full Version: Gumomaniacs - Morbid Tales Of Terror (2020)
Metal Area - Extreme Music Portal > Releases Area / Релизы > Archive
Samaritianin


*Artist: Gumomaniacs
*Album: Morbid Tales Of Terror
*Year: 2020
*Genre: Thrash Metal
*Country: Germany
*Format: mp3@CBR320kbps
*Size: 98MB

Tracklist:
1. Bloodportals 03:44
2. Last Man Standing 04:50
3. Legions of Death 04:29
4. Of Warlords and Vengeance 02:49
5. The Architect 03:58
6. Morbid Tales of Terror 05:01
7. Asmodeus 02:45
8. For A Greater Cause 9. 04:15
9. Chamber of Souls 03:06
10. Valley of Wolves 03:49
11. Brimstone Baptism 03:25
******************************
Total playing time: 42:11




Extended info
Robert Hofmann Bass
See also: Upiór, ex-Metal Raign
Michael Hofmann Drums
See also: ex-Metal Raign
Daniel "Gumo" Reiß Guitars, Vocals
See also: Domination, ex-Thargos, ex-Wizzard





Technical info

Input File: 06 - Morbid Tales of Terror.mp3
Channels : 2
Sample Rate : 44100
Precision : 16-bit
Duration : 00:05:01.00 = 13274100 samples = 22575 CDDA sectors
File Size : 12.2M
Bit Rate : 325k
Sample Encoding: MPEG audio (layer I, II or III)
Comments :
Title=Morbid Tales of Terror
Artist=GumoManiacs
Album=Morbid Tales of Terror
Tracknumber=6
Year=2020-11-22
Discnumber=1



[ Hidden Text ]
Samaritianin
FLAC (Tracks) 307 mb
[ Hidden Text ]
This is a "lo-fi" version of our main content. To view the full version with more information, formatting and images, please click here.
Invision Power Board © 2001-2021 Invision Power Services, Inc.