Help - Search - Members - Calendar
Full Version: The Very End - Zeitgeist (2021)
Metal Area - Extreme Music Portal > Releases Area / Релизы > Archive
wolfskaiser


*Artist: The Very End
*Album: Zeitgeist
*Year: 2021
*Genre: Melodic Death Metal
*Country: Germany
*Format: mp3@CBR320kbps
*Size: 121MB

Tracklist:
01. Teratoma
02. Light The Lows
03. On Parole
04. Zeitgeist
05. Truth & Tremor
06. Short Cuts Deep Wounds
07. Brave New Blood
08. Anechoic
09. The Day It All Went Black
10. Sorrow No More
11. From Boon To Bane
12. Until There's Nothing Left Of Us
******************************
Total playing time: 49:18



Technical info

Input File: 02. Light the Lows.mp3
Channels : 2
Sample Rate : 44100
Precision : 16-bit
Duration : 00:03:56.84 = 10444732 samples = 17763.1 CDDA sectors
File Size : 9.52M
Bit Rate : 322k
Sample Encoding: MPEG audio (layer I, II or III)
Comments :
Title=Light the Lows
Artist=The Very End
Album=Zeitgeist
Tracknumber=2
Year=2021-05-14
Genre=Metal
Discnumber=1



[ Hidden Text ]
DenisKov
Пару раз послушать можно, есть неплохие места, в целом как были третьим эшелоном так им и остались.
zauber1
Третий эшелон - не третий сорт!
Victim of fate
ЦИТАТА(DenisKov @ May 26 2021, 07:18:39) *
Пару раз послушать можно, есть неплохие места, в целом как были третьим эшелоном так им и остались.

а прошлый тебе лихо зашёл)))))))))
This is a "lo-fi" version of our main content. To view the full version with more information, formatting and images, please click here.
Invision Power Board © 2001-2021 Invision Power Services, Inc.