Help - Search - Members - Calendar
Full Version: Nahaya - Vital Alchemy (2021)
Metal Area - Extreme Music Portal > Releases Area / Релизы > Archive
Samaritianin


*Artist: Nahaya
*Album: Vital Alchemy
*Year: 2021
*Genre: Melodic Death/Thrash Metal
*Country: United States
*Format: mp3@CBR320kbps
*Size: 58MB

Tracklist:
1. Madness of Maenads 01:22
2. Deific Mask 03:42
3. Vital Alchemy 04:27
4. Incubator 04:46
5. Kali Yuga 03:26
6. Midnight Fidelio 03:22
7. Aghori Fires 04:03
******************************
Total playing time: 25:08




Extended info
Semir Özerkan Bass
See also: Æternal Requiem, Oceans of Slumber
Zachary Herber Drums
Daniel Abbott Guitars
Ryan Peters Guitars
Carl Elfin Ford Vocals


Technical info

Input File: 07 - Aghori Fires.mp3
Channels : 2
Sample Rate : 44100
Precision : 16-bit
Duration : 00:04:03.00 = 10716300 samples = 18225 CDDA sectors
File Size : 9.81M
Bit Rate : 323k
Sample Encoding: MPEG audio (layer I, II or III)
Comments :
Title=Aghori Fires
Artist=Nahaya
Album=Vital Alchemy
Tracknumber=7
Year=2021-05-21
Discnumber=1



[ Hidden Text ]
dm666
Lossless: FLAC (tracks)
[ Hidden Text ]
DenisKov
Третьесорт.
Victim of fate
вокалисту с его внешностью кантри петь
This is a "lo-fi" version of our main content. To view the full version with more information, formatting and images, please click here.
Invision Power Board © 2001-2021 Invision Power Services, Inc.