Help - Search - Members - Calendar
Full Version: Maggot Crown - Cryptic Immoral Secure (2021)
Metal Area - Extreme Music Portal > Releases Area / Релизы > New Releases > Lossless
Samaritianin


*Artist: Maggot Crown
*Album: Cryptic Immoral Secure
*Year: 2021
*Genre: Death Metal/Grindcore
*Country: United States
*Format: mp3@CBR320kbps
*Size: 80MB

Tracklist:
1. Spectre of Nihilism
2. Obedience Pills
3. War Is Peace
4. Murdeous Continuations
5. Clawing Submission
6. Life Is Suffering
7. Cryptic Immoral Secure
8. Language Corrupted
9. Cover Thine Eyes
10. Welcome Your Indoctrination
******************************
Total playing time: 35:00




Extended info
Jared Moran Guitars, Drums, Bass, Vocals (2014-present)
See also: 54R, Ange de la Mort, Bloodsick, Cave, Conjuration Trance, Corpse Arise, Dragón Blanco, Draug, Eats Aids, Er Murazor, Evaporated Sores, Feral Lord, Filtheater, Flesh Configuration, Flittering, Forestfather, Gastric Phantasm, Herculean Death, Hollowed Idols, Inner Sphere, Ishimura, Kamikaze Pilots, Louching, Morgue Walker, Mountain of Beard, Myrkridia, Obsidian Hooves, Occulsed, Oshiego, Putrefying Cadaverment, Qqgcguvhjn, Raum, Shokushu Goukan, Spawning Vats, Subterranean Birthright, Tacit Annihilation, The Breaking Wheel, The Plague Doctor, Ultima Weapon, Uzumaki, Vomitwolves, Xvart, Yzordderrex, Zombie Raiders, Ithaqua, Scowl, ex-Immaculate Molestation, ex-Your End, Boiled Tongue, Confined Space, Dragunov, Homie Kisses, Old Woman with No Teeth, Popiel, Scourge Whip, ex-Cosmic Atrophy, ex-Gurthang, ex-Vixenta, ex-Bunker Buster, ex-Driven by Suffering, ex-Recovery Period, ex-S & M Party, ex-Seppuku, ex-The Men Behind the Sun, ex-The Nautilus
Justin Vølus Vocals (2019-present)
See also: Flesh Configuration, Morgue Walker, Putrefying Cadaverment, Vølus, ex-Abhorrent Deformity, ex-Daedalvs


Technical info

Input File: 07 - Cryptic Immoral Secure.mp3
Channels : 2
Sample Rate : 44100
Precision : 16-bit
Duration : 00:03:54.60 = 10345640 samples = 17594.6 CDDA sectors
File Size : 9.39M
Bit Rate : 320k
Sample Encoding: MPEG audio (layer I, II or III)
Comments :
Title=Cryptic Immoral Secure
Artist=Maggot Crown
Album=Cryptic Immoral Secure
Tracknumber=7
Year=2021



[ Hidden Text ]
dm666

Lossless: FLAC (tracks)
[ Hidden Text ]
This is a "lo-fi" version of our main content. To view the full version with more information, formatting and images, please click here.
Invision Power Board © 2001-2021 Invision Power Services, Inc.