Help - Search - Members - Calendar
Full Version: Abused Majesty - Inner Consciousness [ep] (2021)
Metal Area - Extreme Music Portal > Releases Area / Релизы > New Releases
smysl


*Artist: Abused Majesty
*Album: Inner Consciousness [ep]
*Year: 2021
*Genre: Symphonic Black Metal
*Country: Poland
*Format: mp3@CBR320kbps
*Size: 28MB

Tracklist:
1.Darkness Walks With Them 04:31
2.Inner Consciousness 05:28
******************************
Total playing time: 9:59



Technical info

Input File: 01 Darkness Walks With Them.mp3
Channels : 2
Sample Rate : 44100
Precision : 16-bit
Duration : 00:04:31.09 = 11955069 samples = 20331.7 CDDA sectors
File Size : 11.1M
Bit Rate : 326k
Sample Encoding: MPEG audio (layer I, II or III)
Comments :
Title=Darkness Walks With Them
Artist=Abused Majesty
Album=Inner Consciousness
Tracknumber=1
Year=2021
Genre=Black Metal



[ Hidden Text ]
isvili
Хорошая группа, жаль что мало альбомов выпускает, помню их альбом 2004 года, он был просто на ура.
13 лет уже от них полноформатника не было.
This is a "lo-fi" version of our main content. To view the full version with more information, formatting and images, please click here.
Invision Power Board © 2001-2021 Invision Power Services, Inc.