Help - Search - Members - Calendar
Full Version: King Gizzard & The Lizard Wizard - Butterfly 3000 (2021)
Metal Area - Extreme Music Portal > Releases Area / Релизы > New Releases
Necrokilldozer


*Artist: King Gizzard & The Lizard Wizard
*Album: Butterfly 3000
*Year: 2021
*Genre: Psychedelic/Garage Rock/Doom/Thrash/Speed Metal/Various
*Country: Australia
*Format: mp3@CBR320kbps
*Size: 104MB

Tracklist:
1. Yours 04:35
2. Shanghai 04:00
3. Dreams 04:04
4. Blue Morpho 03:50
5. Interior People 05:15
6. Catching Smoke 06:28
7. 2.02 Killer Year 03:19
8. Black Hot Soup 05:12
9. Ya Love 04:15
10. Butterfly 3000 02:51
******************************
Total playing time: 43:49



Extended info
Line - up:

Lucas Skinner - Bass (Sambrose Automobile, The Houses)
Michael Cavanagh - Drums
Cook Craig - Guitars, Bass (The Murlocs)
Joey Walker - Guitars, Keyboards (Love Migrate)
Ambrose Kenny-Smith - Harmonica, Keyboards, Vocals (backing) (Sambrose Automobile, The Murlocs)
Stu Mackenzie - Vocals, Guitars, Bass, Keyboards, Piano, Mellotron, Flute


Technical info

Input File: 10. Butterfly 3000.mp3
Channels : 2
Sample Rate : 44100
Precision : 16-bit
Duration : 00:02:51.11 = 7546127 samples = 12833.5 CDDA sectors
File Size : 6.85M
Bit Rate : 320k
Sample Encoding: MPEG audio (layer I, II or III)
Comments :
Title=Butterfly 3000
Artist=King Gizzard & The Lizard Wizard
Album=Butterfly 3000
Tracknumber=10
Year=2021
Genre=Psychedelic/Garage Rock, Doom/Thrash/Speed Metal, Various



[ Hidden Text ]
babanguida
This overrated band sounds more and more like supermarket music.
AlexCrazy
что-то да, куда-то не в ту степь их понесло...... раньше было сильно интереснее
ну и в неформат это конечно
vosmidesijatye
Ну так то они всегда экспериментировали и никогда не ограничивали себя вообще никакими жанровыми рамками. И это в них хорошо. На сабже они в очередной раз решили сменить вектор, сделав упор на синтезаторы и электронное звучание, снабдив музыкальное полотно лёхким налётом этники и специфишным вокалом. Blue Morpho - просто шикарнейшая песня 20.gif
This is a "lo-fi" version of our main content. To view the full version with more information, formatting and images, please click here.
Invision Power Board © 2001-2021 Invision Power Services, Inc.