Help - Search - Members - Calendar
Full Version: Gargowitch - Avidee [demo] (2019)
Metal Area - Extreme Music Portal > Releases Area / Релизы > New Releases
Абигор


*Artist: Gargowitch
*Album: Avidee [demo]
*Year: 2019
*Genre: Experimental Black Metal
*Country: France
*Format: mp3@CBR320kbps
*Size: 117MB

Tracklist:
1. Le bûcher d'Agrile 12:08
2. Thotrevanchethot 07:41
3. Avidee 09:36
4. Akelarre XXX 08:02
5. Goetia Animosa 05:26
6. Magique Holo 06:48
******************************
Total playing time: 49:41



Extended info
Devoted Art Propaganda - NMS 038

Ltd. 100 copies


Technical info

Input File: 05. Goetia Animosa.mp3
Channels : 2
Sample Rate : 44100
Precision : 16-bit
Duration : 00:05:27.07 = 14423963 samples = 24530.5 CDDA sectors
File Size : 13.1M
Bit Rate : 320k
Sample Encoding: MPEG audio (layer I, II or III)
Comments :
Title=Goetia Animosa
Artist=Gargowitch
Album=Avidee
Tracknumber=5/6
Year=2019



[ Hidden Text ]
sethurius
…Мир вокруг стал стремительно угасать и менять краски на мертвенно синие.
Вся палитра естественных цветов постепенно стала отходить на второстепенные тона. Окрас сфокусировал фрагменты некоторых деталей, ставших неблагозвучными, совершенно не вписывающихся в архитектуру окружения.
Вокруг всё наполнилось звуками. Фигуры вдруг ожили, богомерзкий вой флейт стал заполнять фактуру. Я услышал крики животных, в которых вцепились голодные хищники, увидел Боль, наполненную неестественным светом, а ожидание наполнилось тревогой. Мелодия утратила свое очарование, она наполнилась проклятиями, кусками порченого мяса и исковерканной похотью мемуаров. Я услышал звук гонга, крики женщин и монахов побежавших в трапезную.
Мелодия все лилась, плавно, неспешно и заупокойно, словно прохладная вода из живительного источника. Молитвы и песнопения стали сытыми и довольными. Что за чертовщина…кто-то усердно манипулирует с сознанием, заставляя испытывать бесконечный голод. Пора посетить филармонию. Или на худой конец закусочную, где будут подавать телятину, сдобренную доброй порцией адреналина. Хороший вечер и столь прекрасное творение.
ent404
хрень №2
This is a "lo-fi" version of our main content. To view the full version with more information, formatting and images, please click here.
Invision Power Board © 2001-2021 Invision Power Services, Inc.