Help - Search - Members - Calendar
Full Version: Black Spirit - El Sueño De La Razón Produce Monstruos (2021)
Metal Area - Extreme Music Portal > Releases Area / Релизы > Archive
Velmi


*Artist: Black Spirit
*Album: El Sueño De La Razón Produce Monstruos
*Year: 2021
*Genre: Black Metal
*Country: Spain
*Format: mp3@CBR320kbps
*Size: 116MB

Tracklist:
01. El Sueño de la Razón Produce Monstruos 02:31
02. Ignorance and The Grotesque 05:13
03. Dream or a Nightmare 06:15
04. At the Edge of Conciousness 04:56
05. Disparate del miedo 01:50
06. Black Paintings 03:28
07. The Depths of Time 04:13
08. Disparate Funebre 02:29
09. The Fanatics of Oppresion 05:07
10. The Mystical Silence 04:43
11. There will Always be a yet Greater Horror 03:48
12. In the Vortex to Infinite Blackness 05:55
******************************
Total playing time: 50:28

Technical info

Input File: 02. Ignorance And The Grotesque.mp3
Channels : 2
Sample Rate : 44100
Precision : 16-bit
Duration : 00:05:29.09 = 14512649 samples = 24681.4 CDDA sectors
File Size : 13.2M
Bit Rate : 320k
Sample Encoding: MPEG audio (layer I, II or III)
Comments :
Title=Ignorance And The Grotesque
Artist=Black Spirit
Album=El Sueño de la Razón Produce Monstruos
Tracknumber=02/12
Year=2021
Genre=Black Metal
Discnumber=1/1



[ Hidden Text ]
Абигор
Отражение -
[ Hidden Text ]
Sangreal
Добротный стафф.
murian
good one
ent404
хорошо, но ничего своего.
Озабоченный
FLAC

[ Hidden Text ]
[ Hidden Text ]
[ Hidden Text ]
This is a "lo-fi" version of our main content. To view the full version with more information, formatting and images, please click here.
Invision Power Board © 2001-2021 Invision Power Services, Inc.