Help - Search - Members - Calendar
Full Version: Mephistos - Sünder (2021)
Metal Area - Extreme Music Portal > Releases Area / Релизы > New Releases > Unformat R:
wolfskaiser


*Artist: Mephistos
*Album: Sünder
*Year: 2021
*Genre: Industrial/Gothic Metal
*Country: Austria
*Format: mp3@CBR320kbps
*Size: 136MB

Tracklist:
01. Sünder
02. Amen
03. Daumenlutscher
04. Hass
05. Fleisch Und Blut
06. Vatertag
07. Das Letzte Kind
08. Niemals
09. Ich Muss Hier Raus
10. HPA
11. Roter Schnee
12. Sinnhaft
13. Trauma
******************************
Total playing time: 54:48



Technical info

Input File: 02. Amen.mp3
Channels : 2
Sample Rate : 44100
Precision : 16-bit
Duration : 00:05:23.08 = 14247696 samples = 24230.8 CDDA sectors
File Size : 13.0M
Bit Rate : 321k
Sample Encoding: MPEG audio (layer I, II or III)
Comments :
Title=Amen
Artist=Mephistos
Album=Sunder
Tracknumber=02/13
Year=2021
Genre=Metal
Discnumber=1



[ Hidden Text ]
RunningWild_AT
Their track "HPA" (for "Hardcore Porno Action") is featured on Austrian Metal News - Vol. 2:


kimkayoung
1. 320 kbps from the web:

[ Hidden Text ]

2. Each track previewable or downloadable at 320 kbps for free if you want to preview or miss some tracks:

[ Hidden Text ]

[All credits go to the band and the original posters].
This is a "lo-fi" version of our main content. To view the full version with more information, formatting and images, please click here.
Invision Power Board © 2001-2023 Invision Power Services, Inc.