Help - Search - Members - Calendar
Full Version: Old Sorcery - Strange And Eternal (2019)
Metal Area - Extreme Music Portal > Releases Area / Релизы > New Releases > Unformat R:
smysl


*Artist: Old Sorcery
*Album: Strange And Eternal
*Year: 2019
*Genre: Dungeon Synth
*Country: Finland
*Format: mp3@CBR320kbps
*Size: 103MB

Tracklist:
1.The Crystal Funeral 11:14
2.Fimbrethil 04:37
3.A Moss Covered Grimoire 07:30
4.Tears of a Dying Star 05:42
5.Tulessa Uinuva Kuningas 15:54
******************************
Total playing time: 44:57




Technical info

Input File: 01 The Crystal Funeral.mp3
Channels : 2
Sample Rate : 44100
Precision : 16-bit
Duration : 00:11:14.10 = 29727986 samples = 50557.8 CDDA sectors
File Size : 27.1M
Bit Rate : 322k
Sample Encoding: MPEG audio (layer I, II or III)
Comments :
Title=The Crystal Funeral
Artist=Old Sorcery
Album=Strange and Eternal
Tracknumber=1
Year=2019
Genre=Dungeon Synth



[ Hidden Text ]
Hexer
Отличный альбом от финского проекта который творить свою синтезаторную музыку! Dungeon Synth-заветы от дедушки Мортиса здесь возведены во главу угла. Но и свое собственное виденье на то, каким должна быть музыка подземелья у Vechi Vrăjitor присутствуют. На своем втором альбоме музыка приобрела еще более сказочную атмосферу, нежели мрачную как на первом альбоме. Если вы интересуетесь Данж Синтом то Old Sorcery рекомендован к ознакомлению.
vosmidesijatye
ЦИТАТА(Hexer @ Jun 17 2021, 21:24:08) *
Если вы интересуетесь Данж Синтом то Old Sorcery рекомендован к ознакомлению.


Наряду с Tangarothrim, сабж - топовйший на современной данжн синт сцене, имхо. bye.gif
Hexer
ЦИТАТА(vosmidesijatye @ Jun 17 2021, 18:29:12) *
Наряду с Tangarothrim, сабж - топовйший на современной данжн синт сцене, имхо. bye.gif


Tangarothrim один из самых-самых. Можно сказать TOP-5 pray.gif
This is a "lo-fi" version of our main content. To view the full version with more information, formatting and images, please click here.
Invision Power Board © 2001-2021 Invision Power Services, Inc.