Help - Search - Members - Calendar
Full Version: Druadan Forest & Old Sorcery - Druadan Forest/Old Sorcery [split] (2021)
Metal Area - Extreme Music Portal > Releases Area / Релизы > New Releases > Unformat R:
smysl


*Artist: Druadan Forest & Old Sorcery
*Album: Druadan Forest/Old Sorcery [split]
*Year: 2021
*Genre: Dungeon Synth | Dungeon Synth
*Country: Finland | Finland
*Format: mp3@CBR320kbps
*Size: 101MB

Tracklist:
Druadan Forest:
1.Forever Wandering Towards the Shadowgate 11:07
2.Pale Sorcery of the Endless Moon 12:51
Old Sorcery:
3.Statuesque Souls Locked in a Glowing Emerald 10:24
4.Of Dragon's Blood 09:41
******************************
Total playing time: 44:03





Technical info

Input File: 02 DRUADAN FOREST - Pale Sorcery of the Endless Moon.mp3
Channels : 2
Sample Rate : 44100
Precision : 16-bit
Duration : 00:12:51.62 = 34028618 samples = 57871.8 CDDA sectors
File Size : 31.0M
Bit Rate : 321k
Sample Encoding: MPEG audio (layer I, II or III)
Comments :
Title=Pale Sorcery of the Endless Moon
Artist=DRUADAN FOREST
Album=Split
Tracknumber=2
Year=2021
Genre=Dungeon Synth



[ Hidden Text ]
Hexer
А вот здесь у Old Sorcery уже более индивидуальный в музыкальном плане сплит получился нежели с Haxan Dreams. Все таки Druadan Forest более яркий товарищ, который на своем творческом пути выпускал как и Метал альбомы, так и чисто электронные произведения. Здесь электроника от обоих проектов.
Сторона Druadan Forest это каноничный Oldschool Dungeon Synth, только мрачная эпика и не шагу в сторону. Все как было у Mortiis в его культовой Era I.
Сторона Old Sorcery это уже музыка современная, но эксплуатирующая Dungeon Synth эстетику прошлых лет. Музыкант не боится чуть раздвинуть рамки жанра и неплохо обыгрывает старые приемы с использованием своих собственных фишек.
Очень крепкая работа двух достаточно маститых проектов
sethurius
Druadan Forest умело преподносит мрачный фон, но совсем не раскрывает мелодику, больше позиционируя минорную окраску, постоянно ее нагнетая в многократных повторениях. Это хорошо сочетается, скажем, с каким то Действом. усиливая накал, но не как самостоятельная архитектура, строящая эмоцию в контексте своей мелодии. Это мимолетное переживание, ты просто идешь по дороге и твою страсть рождает не аура, а сам поход.
Old Sorcery тоже не раскрывает свой потенциал, больше углубляется в классику, чем в классические клавишные этюды. Вообще, все достаточно однобоко, слишком много фэнтезийной слащавости.
Хотя, если взять например замечательный проект Solanum, напичканный фэнтези, он несравненно более отстраненный и эпичный
Hexer
ЦИТАТА(sethurius @ Jun 19 2021, 19:31:13) *
Хотя, если взять например замечательный проект Solanum, напичканный фэнтези, он несравненно более отстраненный и эпичный


Взял на заметку 9.gif
This is a "lo-fi" version of our main content. To view the full version with more information, formatting and images, please click here.
Invision Power Board © 2001-2021 Invision Power Services, Inc.