Help - Search - Members - Calendar
Full Version: Expunged - Into Never Shall (2021)
Metal Area - Extreme Music Portal > Releases Area / Релизы > Archive
Samaritianin


*Artist: Expunged
*Album: Into Never Shall
*Year: 2021
*Genre: Old School Death Metal
*Country: Canada
*Format: mp3@CBR320kbps
*Size: 89MB

Tracklist:
1. Decompose 02:38
2. Gas Attack 03:26
3. Torn Apart 03:32
4. Drown in Fire 04:55
5. Early Tragic End 04:53
6. Architects of Oblivion 03:31
7. Amidst the Embers 03:15
8. Mass Grave 03:09
9. Into Never Shall 03:48
10. Stolen Life 04:22
******************************
Total playing time: 37:29




Extended info
CD-Rip
K.F. Drums
See also: Töteblut
J.S. Bass, Vocals (2019-present)
See also: Aphrodite, Cannibal, Dexezon, Ice War, Spectral Dance, ex-Trioxin 245, ex-Tempête, ex-Iron Dogs, Blue Cross, Defonce, Devastate, La Loix, Metachrist, Zex, Вредители, ex-Barrow Wight (live), ex-Cauchemar (live), ex-Bastardator, ex-Germ Attak, ex-Mental Rescue
W.D. Guitars (2019-present)
See also: DeadSoulAlliance, ex-Evolution Fail, ex-Recondite
A.K. Drums (2021-present)


Technical info

Input File: 05. Early Tragic End.mp3
Channels : 2
Sample Rate : 44100
Precision : 16-bit
Duration : 00:04:53.00 = 12921300 samples = 21975 CDDA sectors
File Size : 12.1M
Bit Rate : 330k
Sample Encoding: MPEG audio (layer I, II or III)
Comments :
Title=Early Tragic End
Artist=Expunged
Album=Into Never Shall (320)
Tracknumber=05
Year=2021
Genre=Metal



[ Hidden Text ]
Samaritianin
FLAC (Tracks) 255 mb
[ Hidden Text ]
Storky
Exciting drumms but slow and boring guitar riffs
This is a "lo-fi" version of our main content. To view the full version with more information, formatting and images, please click here.
Invision Power Board © 2001-2023 Invision Power Services, Inc.