*Artist: Wolfenburg & Zmierzch
*Album: Wolfenburg/Zmierzch [split]
*Year: 2010
*Genre: Black Metal | Black Metal
*Country: Poland | Poland
*Format: mp3@CBR320kbps
*Size: 69MB

Tracklist:
1. Wolfenburg - Intro 02:29
2. Wolfenburg - The Empire of the Wolf 10:27
3. Zmierzch - Kruk I 04:11
4. Zmierzch - Kruk II 04:17
5. Zmierzch - Lene 08:46
******************************
Total playing time: 30:10

Technical info

Input File: 03 Zmierzch - Kruk I.mp3
Channels : 2
Sample Rate : 44100
Precision : 16-bit
Duration : 00:04:12.17 = 11120829 samples = 18913 CDDA sectors
File Size : 10.2M
Bit Rate : 323k
Sample Encoding: MPEG audio (layer I, II or III)
Comments :
Title=Kruk I
Artist=Zmierzch
Album=Split
Tracknumber=3/5
Year=2010
Genre=Metal
Discnumber=1/1



[ Hidden Text ]