Help - Search - Members - Calendar
Full Version: Haxan Dreams - Path Through The Realm (2018)
Metal Area - Extreme Music Portal > Releases Area / Релизы > New Releases > Unformat R:
smysl


*Artist: Haxan Dreams
*Album: Path Through The Realm
*Year: 2018
*Genre: Dungeon Synth
*Country: Finland
*Format: mp3@CBR320kbps
*Size: 116MB

Tracklist:
1.The Realm 07:36
2.Mountain Passage 05:41
3.Forest Of Idran 05:01
4.Love And The Abyss 05:55
5.Battle Of Twin Mountains 07:20
6.Dance Of The Coven 07:17
7.To Dwell In Darkness 11:22
******************************
Total playing time: 50:12





Technical info

Input File: 01 The Realm.mp3
Channels : 2
Sample Rate : 44100
Precision : 16-bit
Duration : 00:07:36.13 = 20115157 samples = 34209.5 CDDA sectors
File Size : 18.4M
Bit Rate : 323k
Sample Encoding: MPEG audio (layer I, II or III)
Comments :
Title=The Realm
Artist=Haxan Dreams
Album=Path Through the Realm
Tracknumber=1/7
Year=2019
Genre=Ambient
Discnumber=1/1



[ Hidden Text ]
Hexer
Приятный и каноничный Dungeon Synth из Суоми. С одной стороны ничего особенного, а с другой очень хорошо идет фоном + здесь нет переборов с "героичностью" в клавишных, общий настрой скорее мрачно-грустный. Но это однозначно зачёт
This is a "lo-fi" version of our main content. To view the full version with more information, formatting and images, please click here.
Invision Power Board © 2001-2021 Invision Power Services, Inc.