Help - Search - Members - Calendar
Full Version: Arkham Dream - Origins Of Madness (2011)
Metal Area - Extreme Music Portal > Releases Area / Релизы > New Releases > Low Bitrate
Ouroborous


*Artist: Arkham Dream
*Album: Origins Of Madness
*Year: 2011
*Genre: Symphonic Death Metal
*Country: Mexico
*Format: mp3@CBR320kbps
*Size: 102MB

Tracklist:
1. Delirium 01:53
2. Immortals 05:53
3. Through the Madness 05:01
4. Seas of Rage 04:42
5. Between Gods 04:50
6. Away 05:12
7. Oblivion 05:45
8. A Divine Hate (The Other Way Part 1) 06:08
9. In the Eternity 05:17
******************************
Total playing time: 44:41

Technical info

Input File: 03 - Through the Madness.mp3
Channels : 2
Sample Rate : 44100
Precision : 16-bit
Duration : 00:05:00.72 = 13261532 samples = 22553.6 CDDA sectors
File Size : 12.2M
Bit Rate : 323k
Sample Encoding: MPEG audio (layer I, II or III)
Comments :
Title=Through the Madness
Artist=Arkham Dream



[ Hidden Text ]
Сварог Барг
Ну не симфодэт же не разу. Есть нечастые проходы, даже не соло, на ровеснике "и, конечно, Ионики" между сыгранными целыми нотами подкладами, вокалист тужится выдать пивную отрыжку за аццкий харш, дополняют картину хэви-металльно-триольные "коняшки" и Зум-505 человека с гитарой. Лучше бы текилу делали 13.gif
This is a "lo-fi" version of our main content. To view the full version with more information, formatting and images, please click here.
Invision Power Board © 2001-2021 Invision Power Services, Inc.