Help - Search - Members - Calendar
Full Version: Ison - Aurora (2021)
Metal Area - Extreme Music Portal > Releases Area / Релизы > New Releases > Unformat R:
mirotvorets


*Artist: Ison
*Album: Aurora
*Year: 2021
*Genre: Post-Rock/Ethereal Wave/Shoegaze
*Country: Sweden
*Format: mp3@CBR320kbps
*Size: 160MB

Tracklist:
1. Jupiter 09:24
2. Waves 09:10
3. Aurora 08:25
4. Meridian 11:58
5. Celestial 08:36
6. Retrograde 07:58
7. Penumbra 06:54
8. Aquarian 07:45
******************************
Total playing time: 1:10:10



Extended info
ISON is the solo project from multi instrumentalist Daniel Änghede (Venus Principle, ex Crippled Black Phoenix)
The 4th album will be released in 2021 and features guest vocals from Sylvaine, Cammie Gilbert, Gogo Melone & Carline Van Roos amoung others.
The first 3 albums features Heike Langhans of Draconian on vocals & lyrics.


Technical info

Input File: 02. Waves.mp3
Channels : 2
Sample Rate : 44100
Precision : 16-bit
Duration : 00:09:10.22 = 24264878 samples = 41266.8 CDDA sectors
File Size : 22.0M
Bit Rate : 320k
Sample Encoding: MPEG audio (layer I, II or III)
Comments :
Title=Waves
Artist=ISON
Album=Aurora
Tracknumber=2
Year=2021
Genre=Post-Rock



[ Hidden Text ]
Kwaad
Смешанные впечатления от альбома. Вроде бы всё ещё как-то цепляет, но стало меньше космоса и больше всякого нью-эйджа с их недомедитациями. Меня не покидает впечатление, что я слушаю какую-то не первой свежести Энигму в гитарной обработке.
Растеряли они атмосферу, в общем smile2.gif
Krosis
Всё ещё хорош, но после ухода Хайке уже не то, жаль.
Dreamtale
Странно, иногда откровенный пост-рок или вообще эмбиент (не говорю уж про дрим-поп) постят в формат, а тут имхо достаточно дума.
Whitefish
ЦИТАТА(Kwaad @ Jul 17 2021, 03:37:23) *
Смешанные впечатления от альбома. Вроде бы всё ещё как-то цепляет, но стало меньше космоса и больше всякого нью-эйджа с их недомедитациями. Меня не покидает впечатление, что я слушаю какую-то не первой свежести Энигму в гитарной обработке.
Растеряли они атмосферу, в общем smile2.gif



Аналогично. Прослушивал несколько раз и понимаю что вот... не накрывает что-то
6666666
Слушается приятно от начала до конца, но слишком выраженный упор на эмбиент не позволяет оценить альбом выше.
Winterdark
ЦИТАТА(Whitefish @ Aug 4 2021, 20:40:41) *
Аналогично. Прослушивал несколько раз и понимаю что вот... не накрывает что-то

Надо дунуть во время прослушивания
This is a "lo-fi" version of our main content. To view the full version with more information, formatting and images, please click here.
Invision Power Board © 2001-2022 Invision Power Services, Inc.