Help - Search - Members - Calendar
Full Version: Celestial Key - Immortal Crown (2021)
Metal Area - Extreme Music Portal > Releases Area / Релизы > Archive
Velmi


*Artist: Celestial Key
*Album: Immortal Crown
*Year: 2021
*Genre: Raw Black Metal
*Country: United States
*Format: mp3@CBR320kbps
*Size: 55MB

Tracklist:
AI. The Garden Crypt
AII. Restless Spirit Of War
AIII. Lightning Fields
BIV. Steel Doctrine Of The Will
BV. Awakening The Ancient Self
******************************
Total playing time: 22:35

Extended info
Final Agony Records ‎– Final Agony 142


Technical info

Input File: 01. The Garden Crypt.mp3
Channels : 2
Sample Rate : 48000
Precision : 16-bit
Duration : 00:04:18.12 = 12389904 samples ~ 19359.2 CDDA sectors
File Size : 10.8M
Bit Rate : 334k
Sample Encoding: MPEG audio (layer I, II or III)
Comments :
Title=The Garden Crypt
Artist=Celestial Key
Album=Immortal Crown
Tracknumber=01/05
Year=2021
Genre=Black Metal



[ Hidden Text ]
Sangreal
This is a "lo-fi" version of our main content. To view the full version with more information, formatting and images, please click here.
Invision Power Board © 2001-2021 Invision Power Services, Inc.