*Artist: Anteomedroma
*Album: Anteomedroma I [ep]
*Year: 2021
*Genre: Black Metal
*Country: United States
*Format: mp3@CBR320kbps
*Size: 56MB

Tracklist:
1.Crepescula Perpetua (Intro) 01:48
2.The Light Which Can Be Seen But Never Reached 05:53
3.Emanations From Beyond The Hidden Flame 04:54
4.A Resentable Disposition 04:18
5.Malevolent Conviction of the Human Spirit 05:46
6.Angels Collapsing Under Apathy (Outro) 01:11
******************************
Total playing time: 23:50



Technical info

Input File: 02 The Light Which Can Be Seen But Never Reached.mp3
Channels : 2
Sample Rate : 44100
Precision : 16-bit
Duration : 00:05:53.59 = 15593319 samples = 26519.2 CDDA sectors
File Size : 14.3M
Bit Rate : 324k
Sample Encoding: MPEG audio (layer I, II or III)
Comments :
Title=The Light Which Can Be Seen But Never Reached
Artist=Anteomedroma
Album=Anteomedroma I
Tracknumber=2
Year=2021
Genre=Black Metal



[ Hidden Text ]