Help - Search - Members - Calendar
Full Version: Hexorcist - Evil Reaping Death (2021)
Metal Area - Extreme Music Portal > Releases Area / Релизы > Archive
Samaritianin


*Artist: Hexorcist
*Album: Evil Reaping Death
*Year: 2021
*Genre: Death Metal
*Country: United States
*Format: mp3@CBR320kbps
*Size: 81MB

Tracklist:
1. Exulting the Adversary 04:29
2. Sentry at the Seven Gates 02:49
3. Unblessing the Reverent 03:04
4. Proverbs of Pestilence 02:17
5. Denouncing the Immaculate 03:37
6. Evil Reaping Death 03:26
7. Unrighteous Ceremony 03:59
8. Accursed Affirmations 03:16
9. Praising the Most Foul 03:06
10. Crucifixion (Devastator cover) 05:25
******************************
Total playing time: 35:28




Extended info
Hexorcist II Bass
Hexorcist III Guitars
Hexorcist I Vocals
Hexorcist IV Drums


Technical info

Input File: 07 - Unrighteous Ceremony.mp3
Channels : 2
Sample Rate : 44100
Precision : 16-bit
Duration : 00:03:59.73 = 10572225 samples = 17980 CDDA sectors
File Size : 9.59M
Bit Rate : 320k
Sample Encoding: MPEG audio (layer I, II or III)
Comments :
Title=Unrighteous Ceremony
Artist=Hexorcist
Album=Evil Reaping Death
Tracknumber=7
Year=2021
Genre=Death Metal



[ Hidden Text ]
Samaritianin
FLAC (Tracks) 493 mb
[ Hidden Text ]
troll_swamp
Отлично, жду альбом!!!
Samaritianin metaler.gif 9.gif pray.gif
Ещё по ютубским трекам заинтересовало, хорошо шмалят и скирдуют.
Теперь полностью альбомец слухану.
judaz
Неплохой воршип ранним Морбидам (89-91).
Обложка напомнила классику от Bathory.
Zyozic_Bandutto
ЦИТАТА(judaz @ Jul 23 2021, 05:59:32) *
Неплохой воршип ранним Морбидам (89-91).
Обложка напомнила классику от Bathory.

Если это и вошип 89 и 91му Морбидам, то тогда - плохой.

Это скорее похоже на Abomination Of Disolation, причём, тупорылыми барабанами более всего.
Никакой азагтототовской антимелодики с подвыпедвартами тут нет.

Вообще - это все же больше шняга. Превию как то заинтриговали, но, как всегда, это было лучшее, что у них есть.

Так сыгранный, сведённый и поданный дет метал мне давно совсем не интересен.
metamfer
ЦИТАТА(Zyozic_Bandutto @ Jul 24 2021, 18:35:02) *
Если это и вошип 89 и 91му Морбидам, то тогда - плохой.

Это скорее похоже на Abomination Of Disolation, причём, тупорылыми барабанами более всего.
Никакой азагтототовской антимелодики с подвыпедвартами тут нет.

Вообще - это все же больше шняга. Превию как то заинтриговали, но, как всегда, это было лучшее, что у них есть.

Так сыгранный, сведённый и поданный дет метал мне давно совсем не интересен.

Надо брать. 7.gif

ЦИТАТА(Zyozic_Bandutto @ Jul 24 2021, 18:35:02) *

Так сыгранный, сведённый и поданный дет метал мне давно совсем не интересен.
gobblin
ЦИТАТА(metamfer @ 24th July 2021 - 21:35:41) *
Надо брать.

Но ведь если зюзя одессит нос воротит, это еще не гарантия, что альбом стОящий - он же практически все альбомы с дерьмом мешает (кроме своих, конечно 1488.gif )
Есть небольшая вероятность, что альбом и правда не очень ))
troll_swamp
Хохоржо, приятно, в удовольствие слушается.
Люблю такой новодед олдскул дел).
Воршип старикашкам удался как по мне.
spitggis0.gif metaler.gif 9.gif alkash.gif pray.gif
Storky
При чём тут ранние Морбиды, альбом очень модерновый по сравнению с ними, совсем другой зверь, но хорошо заходит
This is a "lo-fi" version of our main content. To view the full version with more information, formatting and images, please click here.
Invision Power Board © 2001-2021 Invision Power Services, Inc.