*Artist: Critical Damage
*Album: Critical Damage
*Year: 2000
*Genre: Thrash Metal
*Country: Italy
*Format: mp3@CBR192kbps
*Size: 50MB

Tracklist:
1. The Words You Want To Hear 04:25
2. Getting Stronger 05:18
3. Power Over 04:09
4. Clear 07:02
5. Liar For Hire 04:46
6. Hollow Swallowed 04:31
7. Critical Damage 03:17
8. The End Of The Story 03:12
******************************
Total playing time: 36:40

Technical info

Input File: 01-The Words You Want To Hear.mp3
Channels : 2
Sample Rate : 44100
Precision : 16-bit
Duration : 00:04:25.65 = 11715253 samples = 19923.9 CDDA sectors
File Size : 6.38M
Bit Rate : 192k
Sample Encoding: MPEG audio (layer I, II or III)
Comments :
Title=The Words You Want To Hear
Artist=Critical Damage (Ita)
Album=Critical Damage
Tracknumber=01
Year=2000
Genre=Thrash Metal



[ Hidden Text ]