*Artist: Disimperium
*Album: Malefic Obliteration [ep]
*Year: 2021
*Genre: Black/Death Metal/Grindcore
*Country: United States
*Format: mp3@CBR320kbps
*Size: 28MB

Tracklist:
1.Malefic Obliteration 02:51
2.Fuming Nexus 03:13
3.Infernal Machine 05:53
******************************
Total playing time: 11:57





Technical info

Input File: 02 Fuming Nexus.mp3
Channels : 2
Sample Rate : 44100
Precision : 16-bit
Duration : 00:03:12.93 = 8508125 samples = 14469.6 CDDA sectors
File Size : 7.82M
Bit Rate : 324k
Sample Encoding: MPEG audio (layer I, II or III)
Comments :
Title=Fuming Nexus
Artist=Disimperium
Album=Malefic Obliteration
Tracknumber=2
Year=2021
Genre=Metal



[ Hidden Text ]