Help - Search - Members - Calendar
Full Version: Enterré Vivant - Les Ténèbres Ne Sont Pas Formées D'ombre (2021)
Metal Area - Extreme Music Portal > Releases Area / Релизы > New Releases > Low Bitrate
Samaritianin


*Artist: Enterré Vivant
*Album: Les Ténèbres Ne Sont Pas Formées D'ombre
*Year: 2021
*Genre: Atmospheric Black Metal
*Country: International
*Format: mp3@CBR320kbps
*Size: 122MB

Tracklist:
1. Enterré vivant 01:18
2. Fière solitude 05:47
3. Rouge 08:00
4. Haine 04:17
5. Lui 06:48
6. Shunga 02:48
7. Les ténèbres ne sont pas formées d’ombre 03:20
8. La souffrance 06:21
9. Plus de haine 01:50
10. Shiki (Instrumental) 12:25
******************************
Total playing time: 52:54




Extended info
France / Japan
Erroiak All instruments, Vocals (2019-present)
See also: Erroiak, Foghorn, Hrad, Kaldt Helvete
Sakrifiss Vocals, Lyrics (2019-present)
See also: ex-The Skaden, ex-La Faim d'Etang


Technical info

Input File: 05 - Lui.mp3
Channels : 2
Sample Rate : 44100
Precision : 16-bit
Duration : 00:06:48.03 = 17994211 samples = 30602.4 CDDA sectors
File Size : 16.5M
Bit Rate : 323k
Sample Encoding: MPEG audio (layer I, II or III)
Comments :
Title=Lui
Artist=Enterré Vivant
Album=Les Ténèbres ne sont pas formées d’ombre
Tracknumber=5
Year=2021
Discnumber=1/1



[ Hidden Text ]
sabr
Похоже, что-то интересное-спасибо
Maximvs
ЦИТАТА(sabr @ Sep 10 2021, 10:12:09) *
Похоже, что-то интересное-спасибо


Точно, интересное смешение Франции и Японии.
AlexCrazy
да французская это команда, нет там никаких японцев smile1.gif)
от Японии только картинка и стихи Басё на дебютнике были..... что на этом в качестве текстов - хз
dolmorgoth
На самом деле, двое музыкантов - французы, но есть один, который живет в Японии более 20 лет!
(Я знаю, потому что я один из 2)
mittal
ЦИТАТА(dolmorgoth @ 13th September 2021 - 12:13:06) *
На самом деле, двое музыкантов - французы, но есть один, который живет в Японии более 20 лет!
(Я знаю, потому что я один из 2)

В группе двое французов, трое из которых - русские.
dolmorgoth
QUOTE(mittal @ 13th September 2021 - 11:48:18) *
На самом деле, двое музыкантов - французы, но есть один, который живет в Японии более 20 лет!
(Я знаю, потому что я один из 2)
В группе двое французов, трое из которых - русские.


15.gif
This is a "lo-fi" version of our main content. To view the full version with more information, formatting and images, please click here.
Invision Power Board © 2001-2021 Invision Power Services, Inc.