Help - Search - Members - Calendar
Full Version: Blutfaust - Muerte Al Mundo Moderno (2021)
Metal Area - Extreme Music Portal > Releases Area / Релизы > Archive
smysl


*Artist: Blutfaust
*Album: Muerte Al Mundo Moderno
*Year: 2021
*Genre: Black Metal
*Country: Spain
*Format: mp3@CBR320kbps
*Size: 82MB

Tracklist:
1.Presagios de Mal Augurio (Intro) 02:27
2.Desazón y Podredumbre 04:34
3.Muerte al Mundo Moderno 05:39
4.Hacia la Montaña 04:48
5.Tumba de Profanos 05:37
6.Europa Desnuda 04:02
7.Bastardos del nuevo Mundo 03:31
8.True Blackness (Satanic Warmaster cover) 04:07
******************************
Total playing time: 34:45



Technical info

Input File: 02 Desazón y Podredumbre.mp3
Channels : 2
Sample Rate : 44100
Precision : 16-bit
Duration : 00:04:34.64 = 12111756 samples = 20598.2 CDDA sectors
File Size : 11.1M
Bit Rate : 324k
Sample Encoding: MPEG audio (layer I, II or III)
Comments :
Title=Desazón y Podredumbre
Artist=Blutfaust
Album=Muerte al Mundo Moderno
Tracknumber=2
Year=2021
Genre=Black Metal



[ Hidden Text ]
Kvlt
"If you can't understand the lyrics, please, LEARN SPANISH.
It's good for your health."

Hahaha, i like N.W.
deadterror
Вроде ничего так, а до конца не стал слушать. Не впечатлило.
This is a "lo-fi" version of our main content. To view the full version with more information, formatting and images, please click here.
Invision Power Board © 2001-2021 Invision Power Services, Inc.