Help - Search - Members - Calendar
Full Version: Rém - Berek (2020)
Metal Area - Extreme Music Portal > Releases Area / Релизы > New Releases
Samaritianin


*Artist: Rém
*Album: Berek
*Year: 2020
*Genre: Black Metal
*Country: Hungary
*Format: mp3@CBR320kbps
*Size: 96MB

Tracklist:
1. Dereng 04:09
2. Köd 03:38
3. Láp 04:19
4. Avar 03:53
5. Berek 03:52
6. Meder 03:19
7. Vadász 02:59
8. Estvéled 03:18
9. Zala 05:01
10. Hidden Track 07:15
******************************
Total playing time: 41:43




Technical info

Input File: 09 - Zala (feat. Leiru).mp3
Channels : 2
Sample Rate : 44100
Precision : 16-bit
Duration : 00:05:01.00 = 13274100 samples = 22575 CDDA sectors
File Size : 12.2M
Bit Rate : 325k
Sample Encoding: MPEG audio (layer I, II or III)
Comments :
Title=Zala (feat. Leiru)
Artist=Rem/Leiru
Album=Berek
Tracknumber=9
Year=2020-09-10
Genre=Metal
Discnumber=1



[ Hidden Text ]
witchfinder
...Oh my, what great big FLACs you have...

[ Hidden Text ]
This is a "lo-fi" version of our main content. To view the full version with more information, formatting and images, please click here.
Invision Power Board © 2001-2021 Invision Power Services, Inc.