*Artist: Runascent
*Album: Falls And Rises [ep]
*Year: 2021
*Genre: Melodic Death Metal
*Country: Japan
*Format: mp3@CBR320kbps
*Size: 54MB

Tracklist:
1. On the Brink of Collapse 01:37
2. Goddess 05:28
3. Deadlock 04:21
4. Final Chance 03:22
5. Whiteout 04:28
6. Travelers 04:09
******************************
Total playing time: 23:25



Technical info

Input File: 05 - Whiteout.mp3
Channels : 2
Sample Rate : 44100
Precision : 16-bit
Duration : 00:04:28.00 = 11818800 samples = 20100 CDDA sectors
File Size : 10.8M
Bit Rate : 323k
Sample Encoding: MPEG audio (layer I, II or III)
Comments :
Title=Whiteout
Artist=Runascent
Album=Falls and Rises
Tracknumber=5
Year=2021-09-10
Discnumber=1



[ Hidden Text ]