Help - Search - Members - Calendar
Full Version: Månen Skygge - Drowning In Silent Echoes (2021)
Metal Area - Extreme Music Portal > Releases Area / Релизы > Archive
NachtWulf


*Artist: Månen Skygge
*Album: Drowning In Silent Echoes
*Year: 2021
*Genre: Atmospheric/Depressive Black Metal
*Country: Australia
*Format: mp3@CBR320kbps
*Size: 87MB

Tracklist:
01. Spiral to Severance
02. The Dark Room
03. Drowning in Silent Echoes
04. And Forever the Worms Will Feed
******************************
Total playing time: 37:50



Technical info

Input File: 01 - Spiral to Severance.mp3
Channels : 2
Sample Rate : 44100
Precision : 16-bit
Duration : 00:00:00.56 = 24784 samples = 42.1497 CDDA sectors
File Size : 22.7M
Bit Rate : 324M
Sample Encoding: MPEG audio (layer I, II or III)
Comments :
Title=Spiral to Severance
Artist=Månen Skygge
Album=Drowning in Silent Echoes
Tracknumber=1/4
Year=2021
Genre=Atmospheric/Depressive Black Metal



[ Hidden Text ]
witchfinder
...The Empire FLACs Back...

[ Hidden Text ]
Mencae77
QUOTE
...The Empire FLACs Back...

lol Dude, you're funny, thanks for the flacs!
This is a "lo-fi" version of our main content. To view the full version with more information, formatting and images, please click here.
Invision Power Board © 2001-2022 Invision Power Services, Inc.