Help - Search - Members - Calendar
Full Version: Ecpatia - Touched By Sun (2021)
Metal Area - Extreme Music Portal > Releases Area / Релизы > New Releases
NachtWulf


*Artist: Ecpatia
*Album: Touched By Sun
*Year: 2021
*Genre: Depressive Black Metal
*Country: Costa Rica
*Format: mp3@CBR320kbps
*Size: 107MB

Tracklist:
01. Intro: 911 5:03
02. Sirenas 5:08
03. The Child 5:48
04. A Wortheless Life 7:00
05. Mass Rejected 5:19
06. Touched by Sun 8:15
07. When Was the Last Time You Were Actually Happy? 4:54
08. Last Good Bye 6:19
******************************
Total playing time: 47:46

Technical info

Input File: 05. Mass Rejected.mp3
Channels : 2
Sample Rate : 44100
Precision : 16-bit
Duration : 00:00:00.32 = 14024 samples = 23.8503 CDDA sectors
File Size : 12.8M
Bit Rate : 322M
Sample Encoding: MPEG audio (layer I, II or III)
Comments :
Title=Mass Rejected
Artist=Ecpatia
Album=Touched by Sun
Tracknumber=5
Year=2021-03-03
Genre=Metal
Discnumber=1



[ Hidden Text ]
isvili
This is a "lo-fi" version of our main content. To view the full version with more information, formatting and images, please click here.
Invision Power Board © 2001-2021 Invision Power Services, Inc.