Help - Search - Members - Calendar
Full Version: Cursed Christ - Unholy Ritual Of Death (2020)
Metal Area - Extreme Music Portal > Releases Area / Релизы > New Releases
smysl


*Artist: Cursed Christ
*Album: Unholy Ritual Of Death
*Year: 2020
*Genre: Black Metal
*Country: Brazil
*Format: mp3@VBR256kbps
*Size: 68MB

Tracklist:
1. The Wolves Holws Again 04:49
2. Gates of Destiny 03:26
3. Katharsis of the Black Aura 03:16
4. Winds of the Past 04:56
5. In The Morbid Loneliness of the Night 04:01
6. Peste Negra/Black Death 05:57
7. Unholy Ritual of Death 04:34
8. Life Eternal (Mayhem cover) 05:31
******************************
Total playing time: 36:30



Extended info
CD, Acta Non Verba Rex (ANV004)


Technical info

Input File: 01 The Wolves Holws Again.mp3
Channels : 2
Sample Rate : 44100
Precision : 16-bit
Duration : 00:04:48.81 = 12736477 samples = 21660.7 CDDA sectors
File Size : 9.58M
Bit Rate : 265k
Sample Encoding: MPEG audio (layer I, II or III)
Comments :
Title=The Wolves Holws Again
Artist=Cursed Christ
Album=Unholy Ritual of Death
Tracknumber=1/8
Year=2020
Genre=Black Metal



[ Hidden Text ]
Storky
Sounds like a best ones of latin Satanic Black Metal , which is very well.
But its weaker than average in terms of composing, there are too much slow chords play, pointlessly repetitive riffs and tacts with stupid drumms. Badly composed, but well played 7.5/10
This is a "lo-fi" version of our main content. To view the full version with more information, formatting and images, please click here.
Invision Power Board © 2001-2021 Invision Power Services, Inc.