Help - Search - Members - Calendar
Full Version: Within Nostalgia - Conjuring A New Reality (2019)
Metal Area - Extreme Music Portal > Releases Area / Релизы > New Releases
GorAtheist


*Artist: Within Nostalgia
*Album: Conjuring A New Reality
*Year: 2019
*Genre: Post-Black Metal
*Country: Canada
*Format: mp3@CBR320kbps
*Size: 91MB

Tracklist:
1. Heart in the Eye of the Skull 08:53
2. Air of Deceit 06:50
3. Code of the Common 06:49
4. Death Lifes' Lover 05:01
5. Soul Mirror 06:00
6. Lost in Aversion 06:34
******************************
Total playing time: 40:07





Technical info

Input File: 02 - Air of Deceit.mp3
Channels : 2
Sample Rate : 44100
Precision : 16-bit
Duration : 00:06:50.77 = 18115045 samples = 30807.9 CDDA sectors
File Size : 16.6M
Bit Rate : 324k
Sample Encoding: MPEG audio (layer I, II or III)
Comments :
Title=Air of Deceit
Artist=Within Nostalgia
Album=Conjuring a New Reality
Tracknumber=2
Year=2019
Genre=Post-Black Metal



[ Hidden Text ]
дивин
Вокал тут всё портит. Не её это - скримить.
witchfinder
...In the beginning, Satan created and heavens and the FLAC...

[ Hidden Text ]
Mencae77
QUOTE
...In the beginning, Satan created and heavens and the FLAC...

lol 15.gif
This is a "lo-fi" version of our main content. To view the full version with more information, formatting and images, please click here.
Invision Power Board © 2001-2021 Invision Power Services, Inc.