Help - Search - Members - Calendar
Full Version: Stheno - Liberty Crawls In Waste (2016)
Metal Area - Extreme Music Portal > Releases Area / Релизы > New Releases
Panacea


*Artist: Stheno
*Album: Liberty Crawls In Waste
*Year: 2016
*Genre: Death/Black Metal/Grindcore/Crust
*Country: Greece
*Format: mp3@CBR320kbps
*Size: 47MB

Tracklist:
1. Intro-Deathbed Confessions 01:17
2. Hail Nothing 02:08
3. Truth To Be A Liar 01:16
4. Let The Mask Slip 01:21
5. Sounds Of Ruined Temples 01:12
6. Under The Black Rain 01:21
7. Into Neverending Struggle 01:39
8. Preachers Of The Fall 01:46
9. Liberty Crawls In Waste 01:22
10. Burn With Pure Light 01:42
11. The Instep Borer 01:00
12. Between Man And God 00:53
13. Poisoned Tears Of The Blessed (Ireland 1972) 02:57
******************************
Total playing time: 19:54



Technical info

Input File: 02 - Hail Nothing.mp3
Channels : 2
Sample Rate : 44100
Precision : 16-bit
Duration : 00:02:08.48 = 5665968 samples = 9636 CDDA sectors
File Size : 5.25M
Bit Rate : 327k
Sample Encoding: MPEG audio (layer I, II or III)
Comments :
Title=Hail Nothing
Artist=Stheno
Album=Liberty Crawls In Waste
Tracknumber=2
Year=2016
Genre=Death/Black Metal/Grindcore/Crust



[ Hidden Text ]
Hell_Is_Here
Немного Fukpig напомнило. 20.gif
This is a "lo-fi" version of our main content. To view the full version with more information, formatting and images, please click here.
Invision Power Board © 2001-2021 Invision Power Services, Inc.