*Artist: Vintlechkeit
*Album: Til Dodens Vinter Alltid... [demo]
*Year: 2021
*Genre: Atmospheric Ambient Raw Black Metal
*Country: Norway
*Format: mp3@CBR320kbps
*Size: 81MB

Tracklist:
1. Til Dodens Vinter Alltid...
2. Snø Blindet Meg Med Sannhet...
******************************
Total playing time: 34:37



Technical info

Input File: 01. Til Dodens Vinter Alltid.mp3
Channels : 2
Sample Rate : 44100
Precision : 16-bit
Duration : 00:21:55.42 = 58010066 samples = 98656.6 CDDA sectors
File Size : 52.7M
Bit Rate : 320k
Sample Encoding: MPEG audio (layer I, II or III)
Comments :
Title=Til Dodens Vinter Alltid...
Artist=Vintlechkeit
Album=Til Dodens Vinter Alltid...
Tracknumber=1
Year=2021
Genre=Atmospheric Ambient Raw Black Metal



[ Hidden Text ]