Help - Search - Members - Calendar
Full Version: Venymysgourvleydh - The Crooked Wheel Of Eternity [demo] (2021)
Metal Area - Extreme Music Portal > Releases Area / Релизы > New Releases
smysl


*Artist: Venymysgourvleydh
*Album: The Crooked Wheel Of Eternity [demo]
*Year: 2021
*Genre: Black Metal
*Country: United Kingdom
*Format: mp3@CBR320kbps
*Size: 56MB

Tracklist:
1.The Crooked Wheel of Eternity 24:11
******************************
Total playing time: 24:11



Technical info

Input File: 01 The Crooked Wheel of Eternity.mp3
Channels : 2
Sample Rate : 44100
Precision : 16-bit
Duration : 00:24:11.97 = 64031833 samples = 108898 CDDA sectors
File Size : 58.2M
Bit Rate : 321k
Sample Encoding: MPEG audio (layer I, II or III)
Comments :
Title=The Crooked Wheel of Eternity
Artist=Venymysgourvleydh
Album=The Crooked Wheel of Eternity
Tracknumber=1
Year=2021
Genre=Black Metal



[ Hidden Text ]
Qliphoth
Как ни странно, но очень годно.
This is a "lo-fi" version of our main content. To view the full version with more information, formatting and images, please click here.
Invision Power Board © 2001-2021 Invision Power Services, Inc.