Help - Search - Members - Calendar
Full Version: Trigger - Back To The Roots (2021)
Metal Area - Extreme Music Portal > Releases Area / Релизы > New Releases
Samaritianin


*Artist: Trigger
*Album: Back To The Roots
*Year: 2021
*Genre: Death Metal
*Country: Russian Federation
*Format: mp3@CBR320kbps
*Size: 95MB

Tracklist:
01. Situation Is Tense
02. Back to the Roots
03. Rejection of Reality
04. Alcoholic Slavery
05. No More Lies
06. Expulsion of Pain
07. Blood Terror
08. Crystal Lake
09. Worn and Torn
10. Vomiting Flame
******************************
Total playing time: 41:04


Preview 2

Extended info
Artem Mozhaev Guitars
Ramin Dragar Vocals
Vladimir Malakhov Drums
Ulyana Andreeva Bass


Technical info

Input File: 10. Vomiting Flame.mp3
Channels : 2
Sample Rate : 44100
Precision : 16-bit
Duration : 00:05:47.00 = 15302700 samples = 26025 CDDA sectors
File Size : 14.0M
Bit Rate : 324k
Sample Encoding: MPEG audio (layer I, II or III)
Comments :
Title=Vomiting Flame
Artist=Trigger
Album=Back to the Roots
Tracknumber=10
Year=2021
Discnumber=1



[ Hidden Text ]
WOLAND
Нет мы не пропустим этот алмаз .
Он уже на перстне Сатаны.
Несмотря на вялое , неспешное начало, уже 2 трек учит многих .Тут живые завидуют мертвым .
Это подарок жесткача на месяц как минимум.Третий трек вообще сносит остатки и так небольшого моего ума. Все как хочется уже давно . Каждый трек делает мой день .А-А_А мать вашу.. pray.gif pray.gif pray.gif Вот оно , спасибище , значит есть то , что и мне нравится в пороховницах темный материй. Соль сначала идет с порохом наступательных мотивов , и надо сначала слиться с некой властью грубости в виде целой лавы бессознательно работающей на лидирующих позициях РИТМ-СЕКЦИЕЙ, и пусть даже она не бешенна и не быстра , но она ОСНОВА в этом полотне ритмовом. Лидер банды кореш Барбарити и этим все сказано.
Samaritianin
FLAC (Tracks) 328 mb
[ Hidden Text ]
This is a "lo-fi" version of our main content. To view the full version with more information, formatting and images, please click here.
Invision Power Board © 2001-2021 Invision Power Services, Inc.