Help - Search - Members - Calendar
Full Version: Sorrowful Life - Sorrowful Life (2021)
Metal Area - Extreme Music Portal > Releases Area / Релизы > New Releases
smysl


*Artist: Sorrowful Life
*Album: Sorrowful Life
*Year: 2021
*Genre: Atmospheric/Depressive Black Metal
*Country: France
*Format: mp3@CBR320kbps
*Size: 125MB

Tracklist:
1.Worthless 04:52
2.The Only Way 06:36
3.Sorrowful Life 06:31
4.July's Light 07:21
5.Until It's Over 06:08
6.Beyond 01:08
7.Dementia 08:57
8.Abigail (Happy Days Cover) 11:37
******************************
Total playing time: 53:10



Technical info

Input File: 02 The Only Way.mp3
Channels : 2
Sample Rate : 44100
Precision : 16-bit
Duration : 00:06:36.09 = 17467701 samples = 29707 CDDA sectors
File Size : 16.0M
Bit Rate : 324k
Sample Encoding: MPEG audio (layer I, II or III)
Comments :
Title=The Only Way
Artist=Sorrowful Life
Album=Sorrowful Life
Tracknumber=2
Year=2021
Genre=Black Metal



[ Hidden Text ]
дивин
Судя по услышанному в bandcamp, вроде неплохая вещь. Красивые мелодии, фоновый вокал, осеннее настроение. Скачаю, для детального ознакомления. 20.gif
Спасибо релизеру.
aleon
убойная музыка супер спб!!
Mick Dundee
Типичный он-ман продукт,по сути одна мелодия разбитая на несколько треков.Ну так то неплохо для любителей "взгрустнуть" не под думец.
rominow
красивая музыка.
This is a "lo-fi" version of our main content. To view the full version with more information, formatting and images, please click here.
Invision Power Board © 2001-2021 Invision Power Services, Inc.