*Artist: Blood Of Raui'ahn
*Album: Kingdom Of Inner Animal [ep]
*Year: 2021
*Genre: Black/Death Metal
*Country: United States
*Format: mp3@CBR320kbps
*Size: 33MB

Tracklist:
1.Inhaled Fumes of Death 01:34
2.Kingdom of Inner Animal 04:01
3.Master of Death, Breeding and Gluttony 03:31
4.Fetal Speedball 02:58
5.Gnawed Vein 02:23
******************************
Total playing time: 14:27



Technical info

Input File: 02 Kingdom of Inner Animal.mp3
Channels : 2
Sample Rate : 44100
Precision : 16-bit
Duration : 00:04:01.70 = 10659014 samples = 18127.6 CDDA sectors
File Size : 9.86M
Bit Rate : 326k
Sample Encoding: MPEG audio (layer I, II or III)
Comments :
Title=Kingdom of Inner Animal
Artist=Blood of Raui'Ahn
Album=Kingdom of Inner Animal
Tracknumber=2
Year=2021
Genre=Black/Death Metal



[ Hidden Text ]