*Artist: Abolition Ritual
*Album: Dark Visions Of Torment [demo]
*Year: 2021
*Genre: Death/Doom Metal
*Country: Italy
*Format: mp3@CBR320kbps
*Size: 38MB

Tracklist:
1.A Shadow Of Horror Has Risen 06:58
2.Dark Visions Of Torment 09:12
******************************
Total playing time: 16:10





Extended info
Abolition Ritual is the death-doom band featuring members of Golem Of Gore, Intolerant, Aborym.


Technical info

Input File: 01 A Shadow Of Horror Has Risen.mp3
Channels : 2
Sample Rate : 44100
Precision : 16-bit
Duration : 00:06:58.40 = 18451572 samples = 31380.2 CDDA sectors
File Size : 16.9M
Bit Rate : 323k
Sample Encoding: MPEG audio (layer I, II or III)
Comments :
Title=A Shadow Of Horror Has Risen
Artist=Abolition Ritual
Album=Dark Visions Of Torment
Tracknumber=1
Year=2021
Genre=Death Metal



[ Hidden Text ]