Help - Search - Members - Calendar
Full Version: Flesh Of Once Demented - Slowly Grinding Are The Mills Of Gods [demo] (2021)
Metal Area - Extreme Music Portal > Releases Area / Релизы > Archive
smysl


*Artist: Flesh Of Once Demented
*Album: Slowly Grinding Are The Mills Of Gods [demo]
*Year: 2021
*Genre: Death/Doom Metal
*Country: Canada
*Format: mp3@CBR320kbps
*Size: 76MB

Tracklist:
1. The Shores at the Ire of Their Subconscious Slumber 11:10
2. Of Dreadful Wounds and Leniency of the Sun 07:04
3. Into the Sempervirent Garden of Flesh 10:13
4. Epiphany of the Ancient Power 04:30
******************************
Total playing time: 32:57



Technical info

Input File: 02 Of.dreadful.wounds.and.leniency.of.the.sun.mp3
Channels : 2
Sample Rate : 44100
Precision : 16-bit
Duration : 00:07:04.57 = 18723449 samples = 31842.6 CDDA sectors
File Size : 17.1M
Bit Rate : 323k
Sample Encoding: MPEG audio (layer I, II or III)
Comments :
Title=Of.dreadful.wounds.and.leniency.of.the.sun
Artist=Flesh of Once Demented
Album=Slowly grinding are the mills of gods (demo 2021)
Tracknumber=2
Year=2021
Genre=Metal



[ Hidden Text ]
Bloodn Lord
Ну них*ра же себе.
Некий ядерный коктейль Эзотерико-Дисемболвементовских ингредиентов с соусом из под СептикФлеша.
Это однозначно точно не дум-дэт в прямом его понимании.
Это действительно адовая смесь, перечисленная выше. Медленные гитарки превращаются в грайнд-дэтовый безудержный поезд, который стремится прямиком попасть в горящее жерло преисподней. Под пафосно-величественную СептикФлешовую атмосферу. Если честно, изначально заметив потрясающую обложку, я ожидал что-то плюс-минус такое. Ожидания мать его оправдались. Временами сверх меры)) Полностью на голову еба**тая демка.
This is a "lo-fi" version of our main content. To view the full version with more information, formatting and images, please click here.
Invision Power Board © 2001-2022 Invision Power Services, Inc.