*Artist: Vampyric & Tarmblod
*Album: Allied Under Black Light [split]
*Year: 2021
*Genre: Raw Black Metal | Raw Black Metal
*Country: United States | Australia
*Format: mp3@CBR320kbps
*Size: 71MB

Tracklist:
Vampyric:
1.Intro 03:05
2.Black Star in a Dying Constellation 04:11
3.Scouring of Heaven 04:30
4.Outro 03:10

Tarmblod:
5.Reign of Hell's Hatred 03:39
6.Imprisoned in Mold 03:08
7.Blood, Fear, Alone in Darkness 05:25
******************************
Total playing time: 27:08




Technical info

Input File: 02 Vampyric - Black Star in a Dying Constellation.mp3
Channels : 2
Sample Rate : 44100
Precision : 16-bit
Duration : 00:04:11.50 = 11091018 samples = 18862.3 CDDA sectors
File Size : 10.3M
Bit Rate : 328k
Sample Encoding: MPEG audio (layer I, II or III)
Comments :
Title=Black Star in a Dying Constellation
Artist=Vampyric
Album=Allied Under Black Light
Tracknumber=2
Year=2021
Genre=Black Metal



[ Hidden Text ]