Help - Search - Members - Calendar
Full Version: Sangre Negra - El Vuelo Del Cóndor Negro (2021)
Metal Area - Extreme Music Portal > Releases Area / Релизы > New Releases
Funeral Frost


*Artist: Sangre Negra
*Album: El Vuelo Del Cóndor Negro
*Year: 2021
*Genre: Black Metal
*Country: Chile
*Format: mp3@CBR320kbps
*Size: 78MB

Tracklist:
1. Intro 00:35
2. El vuelo del cóndor negro 03:05
3. Oscuras alturas de negra lucha 03:06
4. Cayendo al negro abismo 03:03
5. Conquistador conquistado 03:57
6. La muerte es lo único eterno 06:39
7. Katrala 02:56
8. El manifiesto (VJ cover) 05:00
9. Negra locura (Ritual Oscuro cover) 05:30
******************************
Total playing time: 33:51



Technical info

Input File: 04 - Cayendo Al Negro Abismo.mp3
Channels : 2
Sample Rate : 44100
Precision : 16-bit
Duration : 00:03:03.03 = 8071491 samples = 13727 CDDA sectors
File Size : 7.32M
Bit Rate : 320k
Sample Encoding: MPEG audio (layer I, II or III)
Comments :
Title=Cayendo Al Negro Abismo
Artist=Sangre Negra
Album=El Vuelo Del Cóndor Negro
Tracknumber=04
Year=2021



[ Hidden Text ]
дивин
Включил превью на ютубе, запись тихая какая-то, сделал погромче. А тут бац и неожиданно аццке вокал пошёл. Я аж кофе поперхнулся. За злость и ненависть - плюс, но в целом это слушать нельзя.
This is a "lo-fi" version of our main content. To view the full version with more information, formatting and images, please click here.
Invision Power Board © 2001-2021 Invision Power Services, Inc.