Help - Search - Members - Calendar
Full Version: Alcahest - Alcahest (2021)
Metal Area - Extreme Music Portal > Releases Area / Релизы > Archive
Funeral Frost


*Artist: Alcahest
*Album: Alcahest
*Year: 2021
*Genre: Black Metal
*Country: France
*Format: mp3@CBR320kbps
*Size: 46MB

Tracklist:
1. Délivrance 06:06
2. Charogne 04:12
3. Le vide 04:52
4. Memento Mori 04:38
******************************
Total playing time: 19:48



Technical info

Input File: 02 - Charogne.mp3
Channels : 2
Sample Rate : 44100
Precision : 16-bit
Duration : 00:04:12.05 = 11115229 samples = 18903.5 CDDA sectors
File Size : 10.2M
Bit Rate : 323k
Sample Encoding: MPEG audio (layer I, II or III)
Comments :
Title=Charogne
Artist=Alcahest
Album=Alcahest
Tracknumber=02
Year=2021



[ Hidden Text ]
vosmidesijatye
Алкотест true_black.gif
KKK1488
ЦИТАТА(vosmidesijatye @ Oct 13 2021, 16:01:41) *
Алкотест true_black.gif


Нет! Товарисч!!! -- АлкоЧесть!!!
офицерская и даже гражданская...
witchfinder
...Yo yo yo, you best have my money or else Imma bust a cap in your FLAC...

[ Hidden Text ]
squall8fr
QUOTE
First Alcahest EP in Digisleeve released by Drakkar Productions
Artwork : Manon-Lou The Witch
Logo : Christophe Szpajdel
Storky
True Black true_black.gif
This is a "lo-fi" version of our main content. To view the full version with more information, formatting and images, please click here.
Invision Power Board © 2001-2022 Invision Power Services, Inc.