Help - Search - Members - Calendar
Full Version: Entrails Massacre & Sanctioned - Entrails Massacre/Sanctioned [split] (2021)
Metal Area - Extreme Music Portal > Releases Area / Релизы > New Releases
kefka


*Artist: Entrails Massacre & Sanctioned
*Album: Entrails Massacre/Sanctioned [split]
*Year: 2021
*Genre: Grindcore | Grindcore
*Country: Germany | Australia
*Format: mp3@CBR320kbps
*Size: 19MB

Tracklist:
Entrails Massacre:
1.2 Do List 00:58
2.The Dead Walk Among Us 01:04
3.Stick Your Tasteless Gossip Up Your Ass 01:08
4.Age Smells 00:46
Sanctioned:
5.Dysfunction 01:14
6.Injustice 01:22
7.Retaliate 00:57
******************************
Total playing time: 7:29



Technical info

Input File: 02 Entrails Massacre - The Dead Walk Among Us.mp3
Channels : 2
Sample Rate : 44100
Precision : 16-bit
Duration : 00:01:04.79 = 2857239 samples = 4859.25 CDDA sectors
File Size : 2.86M
Bit Rate : 353k
Sample Encoding: MPEG audio (layer I, II or III)
Comments :
Title=Entrails Massacre - The Dead Walk Among Us
Artist=Entrails Massacre
Album=Split
Tracknumber=02
Year=2021
Genre=Grindcore



[ Hidden Text ]
kefka
FLAC-100MB
[ Hidden Text ]
This is a "lo-fi" version of our main content. To view the full version with more information, formatting and images, please click here.
Invision Power Board © 2001-2021 Invision Power Services, Inc.